Skip to main content

Dub Apocalypse Live at Lizard Lounge on 2013-04-05

Audio Preview

etree
Dub Apocalypse Live at Lizard Lounge on 2013-04-05




Set 1

01. Hot Milk
02. Chucky Star
03. Musical Heatwave
04. Tristan
05. Black Organ
06. Streetwise *
07. United Dub

Set 2

01. Intro
02. Sinking Sand
03. Champion
04. Fever %
05. Booze Train
06. Mastermind #
07. band intros
08. Taxi Allstars

* - Nephrok on vocals
% - Craig Akira on vocals
# - B Cap on vocals

Jeremy Valadez also sat in on saxophone for a few songs


Collection DubApocalypse
Band/Artist Dub Apocalypse
Venue Lizard Lounge
Location Cambridge, MA

Source Schoeps MK4/MK22>Sonosax SX-R4 & SB>SX-R4
Lineage WAV>USB>Macbook Pro>Audacity(mixing)>Wave Editor(tracking,fades,resample(izotope)/dither(mbit+)to 16 bit/44.1k)>XAct(FLAC 8,ffp,fix sbe)
Taped by Andy Murray
Transferred by Andy Murray

Notes

Dub Apocalypse
2013-04-05
Lizard Lounge
Cambridge, MA

mk4s were NOS on stage dfc
mk22s were 21cm,110 degrees on stage dfc

Source:
Schoeps mk4> SchoepsNbox actives/Naiant PFAs>Sonosax SX-R4
Schoeps mk22>KC5>CMC6>Sonosax SX-R4
Soundboard>Sonosax SX-R4 (24bit/48khz)

Lineage:
WAV>USB>Macbook Pro>Audacity(mixing)>Wave Editor(tracking,fades,resample(izotope)/dither(mbit+)to 16 bit/44.1k)>XAct(FLAC 8,ffp,fix sbe)

Taped by: Andy Murray
Transferred by: Andy Murray

Tommy Benedetti - Drums
Mike Rivard - Bass
Eric Bloom - Trumpet & assorted percussion
Sam Gilman - Keys
Mike Keenan - Guitar
DJ Mister Rourke - Turntables
Timo Shanko - Saxophone

length expanded size cdr WAVE problems fmt ratio filename
12:25.01 131420396 B --- -- ----- wav 1.0000 dubapoc2013-04-05_mk22mk4sbmix_1644_d1t01.wav
11:22.36 120389516 B --- -- ----- wav 1.0000 dubapoc2013-04-05_mk22mk4sbmix_1644_d1t02.wav
7:34.54 80212652 B --- -- ----- wav 1.0000 dubapoc2013-04-05_mk22mk4sbmix_1644_d1t03.wav
10:34.70 112002284 B --- -- ----- wav 1.0000 dubapoc2013-04-05_mk22mk4sbmix_1644_d1t04.wav
10:12.16 107994476 B --- -- ----- wav 1.0000 dubapoc2013-04-05_mk22mk4sbmix_1644_d1t05.wav
11:46.33 124616060 B --- -- ----- wav 1.0000 dubapoc2013-04-05_mk22mk4sbmix_1644_d1t06.wav
11:10.33 118265660 B --- -- ----- wav 1.0000 dubapoc2013-04-05_mk22mk4sbmix_1644_d1t07.wav
3:10.51 33635996 B --- -- ----- wav 1.0000 dubapoc2013-04-05_mk22mk4sbmix_1644_d2t01.wav
12:44.68 134929580 B --- -- ----- wav 1.0000 dubapoc2013-04-05_mk22mk4sbmix_1644_d2t02.wav
12:42.24 134473292 B --- -- ----- wav 1.0000 dubapoc2013-04-05_mk22mk4sbmix_1644_d2t03.wav
8:39.26 91612796 B --- -- ----- wav 1.0000 dubapoc2013-04-05_mk22mk4sbmix_1644_d2t04.wav
12:52.00 136180844 B --- -- ----- wav 1.0000 dubapoc2013-04-05_mk22mk4sbmix_1644_d2t05.wav
9:15.33 97979660 B --- -- ----- wav 1.0000 dubapoc2013-04-05_mk22mk4sbmix_1644_d2t06.wav
1:56.64 20612972 B --- -- ----- wav 1.0000 dubapoc2013-04-05_mk22mk4sbmix_1644_d2t07.wav
10:49.59 114622412 B --- -- ----- wav 1.0000 dubapoc2013-04-05_mk22mk4sbmix_1644_d2t08.wav
147:17.43 1558948596 B 1.0000 (15 files)

comment
Reviews

There are no reviews yet. Be the first one to write a review.
DOWNLOAD OPTIONS
Uploaded by
andyjah
on 4/7/2013
Views
171
SIMILAR ITEMS (based on metadata)
Dub Apocalypse
by Dub Apocalypse
etree
eye 248
favorite 0
comment 0
Source: Schoeps MK22/MK4>KC5>CMC6>Sonosax SX-R4(24bit/48khz) & SB>SX-R4
Dub Apocalypse
by Dub Apocalypse
etree
eye 157
favorite 0
comment 0
Source: Schoeps MK22/sb>Sonosax SX-R4
Dub Apocalypse
by Dub Apocalypse
etree
eye 140
favorite 0
comment 0
Source: Schoeps Mk22>KC5>CMC6>Sonosax SXR4(24bit/96khz) & Soundboard
Dub Apocalypse
by Dub Apocalypse
etree
eye 117
favorite 0
comment 0
Source: Schoeps MK22/sb>Sonosax SX-R4
Dub Apocalypse
by Dub Apocalypse
etree
eye 104
favorite 0
comment 0
Source: Schoeps M22>KC5>CMC6>Sonosax SXR4(24bit/96khz) & Soundboard
Dub Apocalypse
by Dub Apocalypse
etree
eye 69
favorite 0
comment 0
Source: DPA 4011 > V3 Digital > R44 (24/96)
Dub Apocalypse
by Dub Apocalypse
etree
eye 61
favorite 0
comment 0
Source: Schoeps MK22/MK4>Sonosax SX-R4 + Soundboard>SX-R4
Dub Apocalypse
by Dub Apocalypse
etree
eye 111
favorite 0
comment 0
Source: DPA 4011 > V3 Digital > R44 (24/96)
Dub Apocalypse
by Dub Apocalypse
etree
eye 69
favorite 0
comment 0
Source: Schoeps MK22/MK4>Sonosax SX-R4 + Soundboard>SX-R4
Dub Apocalypse
by Dub Apocalypse
etree
eye 235
favorite 0
comment 0
Source: source1: akg 481 (stagelip) > Lunatec V2 > Edirol R-44 > WAV (24/96k), source2: sbd > Edirol R-44 > WAV (24/96k)